21 12
發新話題
打印

UTAU、V家出色单曲推荐集

2019年春节年货

年货囤积得太多了,导致春节假期过完后还没有消化。
初音未来2018魔法未来 现场音乐会【MP4】文件大小2790MB,片长2小时07分01秒
百度云网盘下载在链接: https://pan.baidu.com/s/1lnHsV6j ... ?fid=67448808764751
General
Complete name                  : 初音未来2018魔法未来.mp4
Format                         : MPEG-4
Format profile                 : Base Media
Codec ID                       : isom (isom/iso2/avc1/mp41)
File size                      : 2.79 GiB
Duration                       : 2 h 7 min
Overall bit rate mode          : Variable
Overall bit rate               : 3 147 kb/s
Writing application            : Lavf58.12.100

Video
ID                             : 1
Format                         : AVC
Format/Info                    : Advanced Video Codec
Format profile                 : [email protected]
Format settings                : CABAC / 1 Ref Frames
Format settings, CABAC         : Yes
Format settings, ReFrames      : 1 frame
Codec ID                       : avc1
Codec ID/Info                  : Advanced Video Coding
Duration                       : 2 h 7 min
Bit rate mode                  : Variable
Bit rate                       : 2 820 kb/s
Maximum bit rate               : 8 172 kb/s
Width                          : 1 920 pixels
Height                         : 1 080 pixels
Display aspect ratio           : 16:9
Frame rate mode                : Variable
Frame rate                     : 30.065 FPS
Minimum frame rate             : 1.194 FPS
Maximum frame rate             : 30.068 FPS
Original frame rate            : 30.068 FPS
Color space                    : YUV
Chroma subsampling             : 4:2:0
Bit depth                      : 8 bits
Scan type                      : Progressive
Bits/(Pixel*Frame)             : 0.045
Stream size                    : 2.50 GiB (90%)

Audio
ID                             : 2
Format                         : AAC
Format/Info                    : Advanced Audio Codec
Format profile                 : LC
Codec ID                       : mp4a-40-2
Duration                       : 2 h 7 min
Bit rate mode                  : Constant
Bit rate                       : 320 kb/s
Channel(s)                     : 2 channels
Channel positions              : Front: L R
Sampling rate                  : 48.0 kHz
Frame rate                     : 46.875 FPS (1024 SPF)
Compression mode               : Lossy
Stream size                    : 291 MiB (10%)
Default                        : Yes
Alternate group                : 1

有个好消息是PanDownload复活了,目前可以满速下载百度云网盘,爽歪歪(-⊡ω⊡)و✧正常下载的前提是必须有百度云的账号在PanDownload进行登录
http://pandownload.com/

[ 本帖最後由 imlhk 於 2019-2-11 15:34 編輯 ]

評分 TOP

 21 12
發新話題